#TITLE:R-E-C-Y-C-L-E;
#SUBTITLE:-From Rocko's Modern Life-;
#ARTIST:Citizens Of O-Town;
#TITLETRANSLIT:;
#SUBTITLETRANSLIT:;
#ARTISTTRANSLIT:;
#CREDIT:;
#BANNER:banner.png;
#BACKGROUND:bg.jpg;
#LYRICSPATH:;
#CDTITLE:cdtitle.png;
#MUSIC:recycle_e.mp3;
#OFFSET:-1.524;
#SAMPLESTART:73.060;
#SAMPLELENGTH:10.000;
#SELECTABLE:YES;
#BPMS:0.000=144.099,92.000=124.999,93.000=109.999,100.250=120.999,100.500=126.999,100.750=144.099;
#STOPS:100.000=0.240
;
#BGCHANGES:;
// cache tags:
#FIRSTBEAT:0.000;
#LASTBEAT:208.000;
#SONGFILENAME:Songs/Music V.I.P ^_^/R-e-c-y-c-l-e/recycle.sm;
#HASMUSIC:1;
#HASBANNER:1;
#MUSICLENGTH:93.378;
// end cache tags

//---------------dance-single - ----------------
#NOTES:
     dance-single:
     :
     Hard:
     7:
     0.496,0.473,0.043,0.311,0.048,291.000,4.000,29.000,0.000,0.000:
1000
0100
0001
0100
1000
0100
0001
0100
,
1000
0002
0000
0000
0000
0000
0000
1003
,
0010
1000
0010
0100
0010
0100
0010
0100
,
0002
0000
0000
0000
0000
0003
1000
1000
,
0100
0010
0001
0010
0001
1000
0010
0100
,
0001
0010
0001
1000
0010
0100
0001
1000
,
0010
0100
0001
0010
0100
0010
0001
1000
,
2000
0000
0000
0000
0000
0000
0000
3001
,
1000
0001
0100
0010
1000
0010
0100
0010
,
1000
2000
0000
0000
0000
0000
0000
3001
,
0010
0001
0010
0100
0010
0001
0010
0100
,
1000
0002
0000
0000
0000
0000
1000
1003
,
0010
1000
0010
0100
0010
1000
0010
0100
,
0001
2000
0000
0000
0000
0000
3001
0010
,
0001
0010
0001
0010
0001
1000
0010
0100
,
0220
0000
0000
0330
,
0001
1000
0001
1000
0001
0010
0100
0010
,
0001
2000
0000
0000
0000
0000
0000
3100
,
0001
1000
0001
1000
0001
0100
0000
0001
,
1000
0001
0010
0220
0000
0330
0000
0001
,
1000
0001
0100
0010
1000
0010
0100
0001
,
0010
0002
0013
0002
0000
0003
1000
0001
,
1000
0001
0100
0010
1000
0001
0100
0010
,
2000
3200
0320
2030
,
3020
0000
0000
0000
,
0030
0100
1000
0001
1000
0001
0100
0001
,
1000
0010
1000
0200
0000
0000
0000
0000
,
0310
0000
0001
0010
0001
0010
0001
1000
,
0010
0100
0002
0000
0000
0000
0000
0000
,
1003
0100
0010
0100
0010
0100
1000
0010
,
0100
0001
0010
0200
0000
0000
0000
0000
,
0000
1300
0001
1000
0001
0100
0010
1000
,
0001
0200
0000
0000
0000
0000
0000
0000
,
0000
0000
0000
0000
,
0300
0000
1000
0001
1000
0001
0010
0100
,
0001
1000
0001
1000
0000
0000
0000
0000
,
0000
1000
0001
1000
0001
0100
0010
1000
,
0100
0010
0002
0000
0000
0000
0000
0000
,
0000
1003
0010
0100
0010
1000
0100
0010
,
0001
0100
0010
0200
0000
0000
0000
0000
,
0300
0000
0000
0001
0000
1000
0000
0000
0001
0000
0000
0000
0100
0000
0000
0000
0010
0000
0000
0000
1000
0000
0000
0100
,
0000
0010
0000
0001
2000
0000
0000
0000
0000
0000
0000
0000
,
3001
0000
1000
0001
0100
0001
1000
0010
,
1000
0100
0010
0002
0000
1000
1000
2003
,
0000
0010
3100
0010
0100
0010
1000
0100
,
0010
0000
0000
0001
0000
0000
2000
0000
0000
0000
0000
0000
0000
0000
0001
0000
0000
0000
3000
0001
0000
0000
0000
0000
,
0001
0010
0001
0001
0010
0100
1000
0010
,
0100
0001
1000
0001
0100
0010
1000
0001
,
1000
0100
0010
0001
0010
0001
2000
0000
,
0000
0000
3001
0001
,
1001
0000
0001
1000
0010
1000
0010
1000
,
0001
0010
0100
1000
0010
0100
0010
0000
,
1001
0000
0000
0000
;

//---------------dance-single - ----------------
#NOTES:
     dance-single:
     :
     Medium:
     6:
     0.367,0.473,0.107,0.225,0.000,209.000,10.000,21.000,0.000,0.000:
1000
0100
0001
0100
1000
0000
0001
0000
,
0101
0000
1000
0000
,
0001
1000
0001
1000
0001
1000
0001
1000
,
0001
0000
1000
0000
,
0001
0000
1001
0000
,
1010
0110
1001
0001
,
0010
0100
0010
0001
,
2002
0000
0000
0000
3003
0000
0000
0001
,
1000
0001
1000
0000
0001
0000
1000
0000
,
0010
0200
0000
0000
0000
0000
0000
0310
,
0100
0010
0100
0000
0001
0000
1100
0000
,
2002
0000
0000
3003
,
0001
0000
0010
0000
0001
0000
0010
0001
,
1000
0000
0001
0000
,
1000
0001
1000
0001
,
2000
0000
0000
3000
,
0001
0000
0100
0000
0001
0100
0001
0100
,
0001
0000
1000
0000
,
0010
0100
0010
0100
0010
0100
0000
0010
,
0001
0010
0001
0010
0000
0000
0000
0000
,
0001
1000
0001
1000
0001
1000
0000
0000
,
0001
0100
0001
0100
0000
0000
0001
0100
,
0001
1000
0001
1000
,
0020
2030
3200
2300
,
3200
0000
0000
0000
,
0300
1000
0001
0000
0001
0000
0001
0000
,
1000
1010
0010
0010
,
0100
0001
1000
0001
,
0010
0001
0010
0001
,
1000
0000
0001
0100
0001
0100
0001
1000
,
0001
1000
0001
1000
0000
0000
0000
0000
,
0000
0001
0001
0001
,
2000
0000
0000
0000
,
0000
0000
0000
0000
,
3000
1000
0001
0010
,
0001
0010
0001
0010
0000
0000
0001
0000
,
0000
1000
0001
1000
0001
1000
0001
1000
,
0001
1000
0002
0000
0000
0000
0000
0000
,
0003
0000
0010
0100
0010
0100
0010
0100
,
0010
0000
0001
0100
0000
0000
0000
0000
,
0000
0000
0001
0010
0001
0000
0010
0000
,
0001
2000
0000
3001
,
0000
0000
0001
1000
0001
1000
0001
0100
,
0001
0100
0001
0200
0000
0000
0000
0000
,
0300
0001
0010
0001
0010
0001
0010
0001
,
0010
0001
0020
0000
0000
0000
0000
0000
,
0130
0010
0100
1000
0100
1000
0100
1000
,
0100
0001
1000
0001
1000
0001
1000
0001
,
1000
0001
1000
0010
1000
0010
2000
0000
,
0000
0000
3020
0230
,
0302
0023
0000
0000
,
0000
0000
0000
0030
,
1001
0000
0000
0000
;

//---------------dance-single - ----------------
#NOTES:
     dance-single:
     :
     Easy:
     4:
     0.321,0.362,0.236,0.332,0.000,157.000,22.000,31.000,0.000,0.000:
1000
0001
0100
0001
,
0020
0000
0000
0000
,
0031
1000
0100
0010
,
0200
0000
0000
0310
,
0001
1000
0001
0100
,
0101
1100
0101
1100
,
0001
0010
0100
0010
,
0220
0000
0000
0330
,
0001
1000
0010
0010
,
0020
0000
0000
0030
,
0100
0001
1000
0100
,
2000
0000
0000
3000
,
0001
0010
0001
0010
,
0220
0000
0000
0330
,
0001
0100
0001
0100
,
0002
0000
0023
0000
,
0130
1000
0100
1000
,
0001
0100
0001
1000
,
0110
1100
0001
0100
,
0001
1000
0220
0330
,
0001
0001
1000
0001
,
0010
0100
0010
0100
,
1000
0001
1000
0001
,
2000
3020
0230
0000
,
0320
0000
0000
0000
,
0030
1000
0001
0100
,
0001
0010
0001
1000
,
0100
1000
0001
0100
,
0010
1000
0010
1000
,
0100
0011
0110
0011
,
0110
0022
0000
0033
,
1000
0001
1000
0010
,
0100
0020
0000
0000
,
0000
0000
0000
0000
,
0030
1000
0001
0100
,
0010
0200
0000
0320
,
0000
1030
1000
0101
,
1100
0220
0000
0000
,
0330
0001
1000
0001
,
0100
0001
0010
0001
,
0010
0100
1000
0010
,
1000
0002
0000
0000
,
0003
1000
0001
0010
,
0001
0022
0000
0033
,
1000
0100
0100
0100
,
0100
1000
1000
1000
,
0010
0010
0100
0001
,
0010
0011
1010
0011
,
0110
0001
1000
0002
,
0000
0000
2003
3020
,
2030
3200
0000
0000
,
0000
0000
0000
0300
,
0010
0000
0000
0000
;
